Guddiyan Patole 2019 Punjabi 720p NF WEB-DL DD+5 1 x264-Telly

Download Free Verified Torrents!

Seeders: 6
Leechers: 12
Age:

Torrent Hash:

05BB3D4FB4296D4C438B85869C2E6C069ECBB90D

Leave a Reply

Your email address will not be published. Required fields are marked *

Torrent files list (total 3.23 GB in 1 files):

Guddiyan.Patole.2019.720p.NF.WEB-DL.DD+5.1.x264-Telly.mkv
  • Guddiyan.Patole.2019.720p.NF.WEB-DL.DD+5.1.x264-Telly.mkv(3.23 GB)

Details

****************************
Team Telly Proudly Presents
****************************

——————

|Media Info|

——————

General
Unique ID                                : 2395791511533747552757327465478369397 (0x1CD69A42B0BD4517D850EBFD7FC3075)
Complete name                            : D:\Guddiyan.Patole.2019.720p.NF.WEB-DL.DD+5.1.×264-Telly.mkv
Format                                   : Matroska
Format version                           : Version 4
File size                                : 3.23 GiB
Duration                                 : 2 h 6 min
Overall bit rate mode                    : Variable
Overall bit rate                         : 3 647 kb/s
Encoded date                             : UTC 2019-11-30 15:33:01 / UTC 2019-10-25 09:42:02
Writing application                      : mkvmerge v37.0.0 (‘Leave It’) 64-bit
Writing library                          : libebml v1.3.9 + libmatroska v1.5.2 / Lavf58.1.0

Video
ID                                       : 1
Format                                   : AVC
Format/Info                              : Advanced Video Codec
Format profile                           : [email protected]
Format settings                          : CABAC / 3 Ref Frames
Format settings, CABAC                   : Yes
Format settings, Reference frames        : 3 frames
Codec ID                                 : V_MPEG4/ISO/AVC
Duration                                 : 2 h 6 min
Bit rate mode                            : Variable
Bit rate                                 : 3 010 kb/s
Maximum bit rate                         : 4 515 kb/s
Width                                    : 1 280 pixels
Height                                   : 720 pixels
Display aspect ratio                     : 16:9
Frame rate mode                          : Constant
Frame rate                               : 24.000 FPS
Color space                              : YUV
Chroma subsampling                       : 4:2:0
Bit depth                                : 8 bits
Scan type                                : Progressive
Bits/(Pixel*Frame)                       : 0.136
Stream size                              : 2.60 GiB (80%)
Writing library                          : x264 core 148 r2715 7e75228
Default                                  : Yes
Forced                                   : No

Audio
ID                                       : 2
Format                                   : E-AC-3
Format/Info                              : Enhanced AC-3
Commercial name                          : Dolby Digital Plus
Codec ID                                 : A_EAC3
Duration                                 : 2 h 6 min
Bit rate mode                            : Constant
Bit rate                                 : 640 kb/s
Channel(s)                               : 6 channels
Channel layout                           : L R C LFE Ls Rs
Sampling rate                            : 48.0 kHz
Frame rate                               : 31.250 FPS (1536 SPF)
Compression mode                         : Lossy
Stream size                              : 580 MiB (18%)
Service kind                             : Complete Main
Default                                  : Yes
Forced                                   : No
Encoded date                             : UTC 2019-10-25 09:42:02

Text
ID                                       : 3
Format                                   : UTF-8
Codec ID                                 : S_TEXT/UTF8
Codec ID/Info                            : UTF-8 Plain Text
Title                                    : English_Full
Language                                 : English
Default                                  : No
Forced                                   : No

www.MoviePirate.Site
Enjoy Exclusives Content only on Telly.cc


Related Torrents

Torrent Name

Size

Files

Age

Seed

Leech

You may like

  • Gemini Man (2019) Cover
  • Werewolf (2018) Cover
  • Sin City: A Dame to Kill For (2014) Cover
  • Holiday Hearts (2019) Cover