It Chapter Two (2019) 720p BRRip x264 Dual Audio AAC [ HIN , ENG ] Eng Sub

Download Free Verified Torrents!

Seeders: 16
Leechers: 33
Age:

Torrent Hash:

D6EE450A82E619693498BB712F1B51DB33F13B5A

Leave a Reply

Your email address will not be published. Required fields are marked *

Torrent files list (total 1.08 GB in 1 files):

It Chapter Two (2019) 720p BRRip x264 Dual Audio AAC [ HIN , ENG ] Eng Sub.mkv
  • It Chapter Two (2019) 720p BRRip x264 Dual Audio AAC [ HIN , ENG ] Eng Sub.mkv(1.08 GB)

Details

It Chapter Two (2019):

R | 2h 49min | Drama, Fantasy, Horror | 6 September 2019 (USA)

Twenty-seven years after their first encounter with the terrifying Pennywise,
the Losers Club have grown up and moved away, until a devastating phone call brings them back.

Director: Andy Muschietti
Writers: Gary Dauberman (screenplay by), Stephen King (based on the novel by)
Stars: Jessica Chastain, James McAvoy, Bill Hader.

Format : Matroska
Format version : Version 4
File size : 1.08 GiB
Duration : 2 h 49 min
Overall bit rate : 915 kb/s

Video
ID : 1
Format : AVC
Format/Info : Advanced Video Codec
Format profile : [email protected]
Format settings : CABAC / 4 Ref Frames
Format settings, CABAC : Yes
Format settings, ReFrames : 4 frames
Codec ID : V_MPEG4/ISO/AVC
Duration : 2 h 49 min
Bit rate : 722 kb/s
Width : 1 280 pixels
Height : 528 pixels
Display aspect ratio : 2.40:1
Frame rate mode : Variable
Frame rate : 23.976 FPS
Color space : YUV
Chroma subsampling : 4:2:0
Bit depth : 8 bits
Scan type : Progressive
Bits/(Pixel*Frame) : 0.045
Stream size : 875 MiB (79%)
Writing library : x264 core 157

Audio #1
ID : 2
Format : AAC LC
Format/Info : Advanced Audio Codec Low Complexity
Codec ID : A_AAC-2
Duration : 2 h 49 min
Bit rate : 93.6 kb/s
Channel(s) : 2 channels
Channel layout : L R
Sampling rate : 44.1 kHz
Frame rate : 43.066 FPS (1024 SPF)
Compression mode : Lossy
Stream size : 113 MiB (10%)
Language : Hindi
Default : Yes
Forced : Yes

Audio #2
ID : 3
Format : AAC LC
Format/Info : Advanced Audio Codec Low Complexity
Codec ID : A_AAC-2
Duration : 2 h 49 min
Bit rate : 96.0 kb/s
Channel(s) : 2 channels
Channel layout : L R
Sampling rate : 48.0 kHz
Frame rate : 46.875 FPS (1024 SPF)
Compression mode : Lossy
Stream size : 117 MiB (11%)
Language : English
Default : No
Forced : No

Text
ID : 4
Format : UTF-8
Codec ID : S_TEXT/UTF8
Codec ID/Info : UTF-8 Plain Text
Duration : 2 h 44 min
Bit rate : 50 b/s
Count of elements : 2404
Stream size : 60.4 KiB (0%)
Writing library : Lavc58.35.100 srt
Language : English
Default : Yes
Forced : No

Related Torrents

You may like

  • A Reindeer's Journey (2018) Cover
  • Bad Dose (2019) Cover
  • Holiday Hearts (2019) Cover
  • War (2019) Cover