Ratchet & Clank 2016 x264 720p Esub BluRay Dual Audio English Hindi

Download Free Verified Torrents!

Seeders: 33
Leechers: 39
Age:

Torrent Hash:

9827ACFE7621684EB762B61B5B5BFBC95B2E3ED6

Leave a Reply

Your email address will not be published. Required fields are marked *

Torrent files list (total 737.47 MB in 1 files):

Ratchet & Clank 2016 x264 720p Esub BluRay Dual Audio English Hindi GOPISAHI.mkv
  • Ratchet & Clank 2016 x264 720p Esub BluRay Dual Audio English Hindi GOPISAHI.mkv(737.47 MB)

Details

Ratchet & Clank 2016 x264 720p Esub BluRay Dual Audio English Hindi GOPISAHI

Format : Matroska
Format version : Version 4
File size : 737 MiB
Duration : 1 h 34 min
Overall bit rate : 1 095 kb/s
Movie name : Ratchet & Clank 2016 GOPISAHI

Video
Format : AVC
Format/Info : Advanced Video Codec
Format profile : [email protected]
Format settings : CABAC / 4 Ref Frames
Format settings, CABAC : Yes
Format settings, Reference fra : 4 frames
Codec ID : V_MPEG4/ISO/AVC
Duration : 1 h 34 min
Bit rate : 900 kb/s
Width : 1 280 pixels
Height : 534 pixels
Display aspect ratio : 2.40:1
Original display aspect ratio : 2.40:1
Frame rate mode : Constant
Frame rate : 23.976 (24000/1001) FPS
Color space : YUV
Chroma subsampling : 4:2:0
Bit depth : 8 bits
Scan type : Progressive
Bits/(Pixel*Frame) : 0.055
Stream size : 605 MiB (82%)
Title : GOPISAHI
Writing library : x264 core 148

Audio #1
Format : AAC LC
Format/Info : Advanced Audio Codec Low Complexity
Codec ID : A_AAC-2
Duration : 1 h 34 min
Bit rate : 96.0 kb/s
Channel(s) : 2 channels
Channel layout : L R
Sampling rate : 48.0 kHz
Frame rate : 46.875 FPS (1024 SPF)
Compression mode : Lossy
Delay relative to video : -43 ms
Stream size : 64.9 MiB (9%)
Title : GOPISAHI
Language : Hindi

Audio #2
Format : AAC LC
Duration : 1 h 34 min
Bit rate : 96.0 kb/s
Channel(s) : 2 channels
Channel layout : L R
Sampling rate : 48.0 kHz
Frame rate : 46.875 FPS (1024 SPF)
Compression mode : Lossy
Delay relative to video : -43 ms
Stream size : 64.8 MiB (9%)
Title : GOPISAHI
Language : English
Text
Language : English

Related Torrents

Torrent Name

Size

Files

Age

Seed

Leech

690.36 MB

2

10 months ago

38

4

You may like

  • It Chapter Two (2019) Cover
  • Dark Harvest (2016) Cover
  • Master Z: The Ip Man Legacy (2018) Cover
  • Hustlers (2019) Cover