The Irishman 2019 1080p WEBRip x264-RARBG

Download Free Verified Torrents!

Seeders: 478
Leechers: 226
Age:

Torrent Hash:

D42E534E307BDC79A29C5ED4CF8949E6DF5F8AA9

Leave a Reply

Your email address will not be published. Required fields are marked *

Torrent files list (total 4 GB in 28 files):

The.Irishman.2019.1080p.WEBRip.x264-RARBG
  • RARBG.txt(30 B)
  • RARBG_DO_NOT_MIRROR.exe(99 B)
  • Subs
    • 10_Portuguese.srt(204.53 KB)
    • 11_Polish.srt(190.5 KB)
    • 12_Turkish.srt(201.82 KB)
    • 13_Swedish.srt(206.62 KB)
    • 14_Danish.srt(198.49 KB)
    • 15_Finnish.srt(196.32 KB)
    • 16_Dutch.srt(191.03 KB)
    • 17_nor.srt(195.84 KB)
    • 19_Hungarian.srt(197.47 KB)
    • 23_Romanian.srt(205.12 KB)
    • 24_Czech.srt(200.71 KB)
    • 25_Indonesian.srt(204.31 KB)
    • 26_Vietnamese.srt(223.74 KB)
    • 28_Korean.srt(202.88 KB)
    • 29_Chinese.srt(197.02 KB)
    • 2_English.srt(929 B)
    • 30_Chinese.srt(188.03 KB)
    • 31_Japanese.srt(177.43 KB)
    • 3_English.srt(205.3 KB)
    • 4_Spanish.srt(196.08 KB)
    • 5_Spanish.srt(221.42 KB)
    • 6_French.srt(205.91 KB)
    • 7_German.srt(206.86 KB)
    • 8_Italian.srt(179.55 KB)
    • 9_Portuguese.srt(207.25 KB)
  • The.Irishman.2019.1080p.WEBRip.x264-RARBG.mp4(3.99 GB)

Details

A mob hitman recalls his possible involvement with the slaying of Jimmy Hoffa.

Genres: Biography , Crime , Drama
Actors: Robert De Niro , Al Pacino , Joe Pesci , Anna Paquin , Jesse Plemons , Stephen Graham , Kathrine Narducci , Jack Huston , Bobby Cannavale ,
Steven Van Zandt , Harvey Keitel , Aleksa Palladino , Domenick Lombardozzi , Ray Romano , Dascha Polanco
Director: Martin Scorsese

Video
ID : 1
Format : AVC
Format/Info : Advanced Video Codec
Format profile : [email protected]
Format settings : CABAC / 4 Ref Frames
Format settings, CABAC : Yes
Format settings, Reference frames : 4 frames
Codec ID : avc1
Codec ID/Info : Advanced Video Coding
Duration : 3 h 29 min
Bit rate : 2 500 kb/s
Width : 1 920 pixels
Height : 1 036 pixels
Display aspect ratio : 1.85:1
Frame rate mode : Constant
Frame rate : 24.000 FPS
Color space : YUV
Chroma subsampling : 4:2:0
Bit depth : 8 bits
Scan type : Progressive
Bits/(Pixel*Frame) : 0.052
Stream size : 3.66 GiB (92%)
Encoded date : UTC 2019-11-27 11:40:44
Tagged date : UTC 2019-11-27 11:40:44
Codec configuration box : avcC

Audio
ID : 2
Format : AAC LC
Format/Info : Advanced Audio Codec Low Complexity
Codec ID : mp4a-40-2
Duration : 3 h 29 min
Duration_LastFrame : -11 ms
Bit rate mode : Constant
Bit rate : 224 kb/s
Channel(s) : 6 channels
Channel layout : C L R Ls Rs LFE
Sampling rate : 48.0 kHz
Frame rate : 46.875 FPS (1024 SPF)
Compression mode : Lossy
Stream size : 336 MiB (8%)
Language : English
Default : Yes
Alternate group : 1
Encoded date : UTC 2019-11-27 11:40:44
Tagged date : UTC 2019-11-27 11:40:44



Related Torrents

Torrent Name

Size

Files

Age

Seed

Leech

You may like

  • Dark Harvest (2016) Cover
  • Sin City: A Dame to Kill For (2014) Cover
  • Hustlers (2019) Cover
  • Turbines (2019) Cover