See (2019) S01E01 Godflame (1080p AppleTV+ Webrip x265 10bit AC3 5.1 – Goki)

Download Free Verified Torrents!

Seeders: 76
Leechers: 16
Age:

Torrent Hash:

6AAEBDB1DD3241BB53A9030B7C5738F462042DA5

Leave a Reply

Your email address will not be published. Required fields are marked *

Torrent files list (total 2.04 GB in 1 files):

See (2019) S01E01 Godflame (1080p AppleTV+ Webrip x265 10bit AC3 5.1 - Goki).mkv
  • See (2019) S01E01 Godflame (1080p AppleTV+ Webrip x265 10bit AC3 5.1 - Goki).mkv(2.04 GB)

Details


See (2019) IMDB

 

Media Information

Complete name : See (2019) S01E01 Godflame (1080p AppleTV+ Webrip x265 10bit AC3 5.1 – Goki).mkv
Format : Matroska
Format version : Version 4
File size : 2.04 GiB
Duration : 57 min 30 s
Overall bit rate : 5 081 kb/s
Movie name : See (2019) S01E01 Godflame (1080p Webrip x265 10bit AC3 5.1 – Goki).mkv
Encoded date : UTC 2019-11-02 05:57:40
Writing application : mkvmerge v28.2.0 (‘The Awakening’) 64-bit
Writing library : libebml v1.3.6 + libmatroska v1.4.9

Video
ID : 1
Format : HEVC
Format/Info : High Efficiency Video Coding
Format profile : Main [email protected]@Main
Codec ID : V_MPEGH/ISO/HEVC
Duration : 57 min 30 s
Bit rate : 4 695 kb/s
Width : 1 920 pixels
Height : 910 pixels
Display aspect ratio : 2.110
Frame rate mode : Constant
Frame rate : 23.976 (24000/1001) FPS
Color space : YUV
Chroma subsampling : 4:2:0
Bit depth : 10 bits
Bits/(Pixel*Frame) : 0.112
Stream size : 1.89 GiB (92%)
Writing library : x265 2.9+8-27d8424c799d:[Windows][MSVC 1915][64 bit] 10bit

Language : English
Default : Yes
Forced : No

Audio
ID : 2
Format : AC-3
Format/Info : Audio Coding 3
Commercial name : Dolby Digital
Codec ID : A_AC3
Duration : 57 min 30 s
Bit rate mode : Constant
Bit rate : 384 kb/s
Channel(s) : 6 channels
Channel layout : L R C LFE Ls Rs
Sampling rate : 48.0 kHz
Frame rate : 31.250 FPS (1536 SPF)
Compression mode : Lossy
Stream size : 158 MiB (8%)
Language : English
Service kind : Complete Main
Default : Yes
Forced : No

Text #1
ID : 3
Format : UTF-8
Codec ID : S_TEXT/UTF8
Codec ID/Info : UTF-8 Plain Text
Duration : 55 min 4 s
Bit rate : 35 b/s
Count of elements : 487
Stream size : 14.3 KiB (0%)
Language : English
Default : No
Forced : No

Text #2
ID : 4
Format : UTF-8
Codec ID : S_TEXT/UTF8
Codec ID/Info : UTF-8 Plain Text
Duration : 55 min 54 s
Bit rate : 40 b/s
Count of elements : 601
Stream size : 16.8 KiB (0%)
Language : English
Default : No
Forced : No

Related Torrents

You may like

  • Altered Carbon Cover
  • Carnival Row (2019) Cover
  • Bard of Blood (2019) Cover
  • The Boys (2019) Cover