See (2019) S01E02 Message in a Bottle (1080p AppleTV+ Webrip x265 10bit AC3 5.1 – Goki)

Download Free Verified Torrents!

Seeders: 61
Leechers: 13
Age:

Torrent Hash:

030AFE9A265051B742C7B5B4A6DFEF1DC55C476E

Leave a Reply

Your email address will not be published. Required fields are marked *

Torrent files list (total 1.72 GB in 1 files):

See (2019) S01E02 Message in a Bottle (1080p AppleTV+ Webrip x265 10bit AC3 5.1 - Goki).mkv
  • See (2019) S01E02 Message in a Bottle (1080p AppleTV+ Webrip x265 10bit AC3 5.1 - Goki).mkv(1.72 GB)

Details


See (2019) IMDB

Media Information

Complete name : See (2019) S01E02 Message in a Bottle (1080p AppleTV+ Webrip x265 10bit AC3 5.1 – Goki).mkv
Format : Matroska
Format version : Version 4
File size : 1.72 GiB
Duration : 57 min 49 s
Overall bit rate : 4 262 kb/s
Movie name : See (2019) S01E02 Message in a Bottle (1080p AppleTV+ Webrip x265 10bit AC3 5.1 – Goki).mkv
Encoded date : UTC 2019-11-02 11:36:13
Writing application : mkvmerge v28.2.0 (‘The Awakening’) 64-bit
Writing library : libebml v1.3.6 + libmatroska v1.4.9

Video
ID : 1
Format : HEVC
Format/Info : High Efficiency Video Coding
Format profile : Main [email protected]@Main
Codec ID : V_MPEGH/ISO/HEVC
Duration : 57 min 49 s
Bit rate : 3 876 kb/s
Width : 1 920 pixels
Height : 910 pixels
Display aspect ratio : 2.110
Frame rate mode : Constant
Frame rate : 23.976 (24000/1001) FPS
Color space : YUV
Chroma subsampling : 4:2:0
Bit depth : 10 bits
Bits/(Pixel*Frame) : 0.093
Stream size : 1.57 GiB (91%)
Writing library : x265 2.9+8-27d8424c799d:[Windows][MSVC 1915][64 bit] 10bit
Language : English
Default : Yes
Forced : No

Audio
ID : 2
Format : AC-3
Format/Info : Audio Coding 3
Commercial name : Dolby Digital
Codec ID : A_AC3
Duration : 57 min 49 s
Bit rate mode : Constant
Bit rate : 384 kb/s
Channel(s) : 6 channels
Channel layout : L R C LFE Ls Rs
Sampling rate : 48.0 kHz
Frame rate : 31.250 FPS (1536 SPF)
Compression mode : Lossy
Stream size : 159 MiB (9%)
Language : English
Service kind : Complete Main
Default : Yes
Forced : No

Text #1
ID : 3
Format : UTF-8
Codec ID : S_TEXT/UTF8
Codec ID/Info : UTF-8 Plain Text
Duration : 56 min 7 s
Bit rate : 45 b/s
Count of elements : 578
Stream size : 18.8 KiB (0%)
Language : English
Default : No
Forced : No

Text #2
ID : 4
Format : UTF-8
Codec ID : S_TEXT/UTF8
Codec ID/Info : UTF-8 Plain Text
Duration : 56 min 49 s
Bit rate : 49 b/s
Count of elements : 662
Stream size : 20.6 KiB (0%)
Language : English
Default : No
Forced : No

Related Torrents

You may like

  • Bard of Blood (2019) Cover
  • Dark Angel (2000) Cover
  • The Haunting of Hill House () Cover
  • The Spy (2019) Cover