See (2019) S01E03 Fresh Blood (1080p AppleTV+ Webrip x265 10bit AC3 5.1 – Goki)

Download Free Verified Torrents!

Seeders: 65
Leechers: 16
Age:

Torrent Hash:

990D70F21FD9AA7310EA328DF945AD1AA7487B44

Leave a Reply

Your email address will not be published. Required fields are marked *

Torrent files list (total 1.62 GB in 1 files):

See (2019) S01E03 Fresh Blood (1080p AppleTV+ Webrip x265 10bit AC3 5.1 - Goki).mkv
  • See (2019) S01E03 Fresh Blood (1080p AppleTV+ Webrip x265 10bit AC3 5.1 - Goki).mkv(1.62 GB)

Details


See (2019) IMDB

Media Information

Complete name : See (2019) S01E03 Fresh Blood (1080p AppleTV+ Webrip x265 10bit AC3 5.1 – Goki).mkv
Format : Matroska
Format version : Version 4
File size : 1.62 GiB
Duration : 51 min 27 s
Overall bit rate : 4 500 kb/s
Movie name : See (2019) S01E03 Fresh Blood (1080p AppleTV+ Webrip x265 10bit AC3 5.1 – Goki).mkv
Encoded date : UTC 2019-11-02 19:48:53
Writing application : mkvmerge v28.2.0 (‘The Awakening’) 64-bit
Writing library : libebml v1.3.6 + libmatroska v1.4.9

Video
ID : 1
Format : HEVC
Format/Info : High Efficiency Video Coding
Format profile : Main [email protected]@Main
Codec ID : V_MPEGH/ISO/HEVC
Duration : 51 min 27 s
Bit rate : 4 115 kb/s
Width : 1 920 pixels
Height : 910 pixels
Display aspect ratio : 2.110
Frame rate mode : Constant
Frame rate : 23.976 (24000/1001) FPS
Color space : YUV
Chroma subsampling : 4:2:0
Bit depth : 10 bits
Bits/(Pixel*Frame) : 0.098
Stream size : 1.48 GiB (91%)
Writing library : x265 2.9+8-27d8424c799d:[Windows][MSVC 1915][64 bit] 10bit
Language : English
Default : Yes
Forced : No

Audio
ID : 2
Format : AC-3
Format/Info : Audio Coding 3
Commercial name : Dolby Digital
Codec ID : A_AC3
Duration : 51 min 27 s
Bit rate mode : Constant
Bit rate : 384 kb/s
Channel(s) : 6 channels
Channel layout : L R C LFE Ls Rs
Sampling rate : 48.0 kHz
Frame rate : 31.250 FPS (1536 SPF)
Compression mode : Lossy
Stream size : 141 MiB (9%)
Language : English
Service kind : Complete Main
Default : Yes
Forced : No

Text #1
ID : 3
Format : UTF-8
Codec ID : S_TEXT/UTF8
Codec ID/Info : UTF-8 Plain Text
Duration : 49 min 42 s
Bit rate : 35 b/s
Count of elements : 447
Stream size : 12.9 KiB (0%)
Language : English
Default : No
Forced : No

Text #2
ID : 4
Format : UTF-8
Codec ID : S_TEXT/UTF8
Codec ID/Info : UTF-8 Plain Text
Duration : 50 min 8 s
Bit rate : 41 b/s
Count of elements : 562
Stream size : 15.1 KiB (0%)
Language : English
Default : No
Forced : No

Related Torrents

You may like

  • Altered Carbon Cover
  • Bard of Blood (2019) Cover
  • The Spy (2019) Cover
  • Carnival Row (2019) Cover