See (2019) S01E05 Plastic (1080p ATVP Webrip x265 10bit AC3 5.1 – Goki)

Download Free Verified Torrents!

Seeders: 45
Leechers: 9
Age:

Torrent Hash:

2592082A6B20F466935047CC0757CB0CAD5ED732

Leave a Reply

Your email address will not be published. Required fields are marked *

Torrent files list (total 1.84 GB in 1 files):

See (2019) S01E05 Plastic (1080p ATVP Webrip x265 10bit AC3 5.1 - Goki).mkv
  • See (2019) S01E05 Plastic (1080p ATVP Webrip x265 10bit AC3 5.1 - Goki).mkv(1.84 GB)

Details


See (2019) IMDB

Media Information

Complete name : See (2019) S01E05 Plastic (1080p ATVP Webrip x265 10bit AC3 5.1 – Goki).mkv
Format : Matroska
Format version : Version 4
File size : 1.84 GiB
Duration : 52 min 45 s
Overall bit rate : 4 992 kb/s
Movie name : See (2019) S01E005 Plastic (1080p ATVP Webrip x265 10bit AC3 5.1 – Goki).mkv
Encoded date : UTC 2019-11-15 11:13:58
Writing application : mkvmerge v28.2.0 (‘The Awakening’) 64-bit
Writing library : libebml v1.3.6 + libmatroska v1.4.9

Video
ID : 1
Format : HEVC
Format/Info : High Efficiency Video Coding
Format profile : Main [email protected]@Main
Codec ID : V_MPEGH/ISO/HEVC
Duration : 52 min 45 s
Bit rate : 4 606 kb/s
Width : 1 920 pixels
Height : 910 pixels
Display aspect ratio : 2.110
Frame rate mode : Constant
Frame rate : 23.976 (24000/1001) FPS
Color space : YUV
Chroma subsampling : 4:2:0
Bit depth : 10 bits
Bits/(Pixel*Frame) : 0.110
Stream size : 1.70 GiB (92%)
Writing library : x265 2.9+8-27d8424c799d:[Windows][MSVC 1915][64 bit] 10bit
Language : English
Default : Yes
Forced : No

Audio
ID : 2
Format : AC-3
Format/Info : Audio Coding 3
Commercial name : Dolby Digital
Codec ID : A_AC3
Duration : 52 min 45 s
Bit rate mode : Constant
Bit rate : 384 kb/s
Channel(s) : 6 channels
Channel layout : L R C LFE Ls Rs
Sampling rate : 48.0 kHz
Frame rate : 31.250 FPS (1536 SPF)
Compression mode : Lossy
Stream size : 145 MiB (8%)
Language : English
Service kind : Complete Main
Default : Yes
Forced : No

Text #1
ID : 3
Format : UTF-8
Codec ID : S_TEXT/UTF8
Codec ID/Info : UTF-8 Plain Text
Duration : 51 min 25 s
Bit rate : 37 b/s
Count of elements : 481
Stream size : 14.2 KiB (0%)
Language : English
Default : No
Forced : No

Text #2
ID : 4
Format : UTF-8
Codec ID : S_TEXT/UTF8
Codec ID/Info : UTF-8 Plain Text
Duration : 51 min 25 s
Bit rate : 43 b/s
Count of elements : 602
Stream size : 16.5 KiB (0%)
Language : English
Default : No
Forced : No

Text #3
ID : 5
Format : UTF-8
Codec ID : S_TEXT/UTF8
Codec ID/Info : UTF-8 Plain Text
Duration : 52 min 37 s
Bit rate : 35 b/s
Count of elements : 510
Stream size : 13.9 KiB (0%)
Language : French
Default : No
Forced : No

Text #4
ID : 6
Format : UTF-8
Codec ID : S_TEXT/UTF8
Codec ID/Info : UTF-8 Plain Text
Duration : 52 min 37 s
Bit rate : 38 b/s
Count of elements : 501
Stream size : 14.9 KiB (0%)
Language : Italian
Default : No
Forced : No
Text #5
ID : 7
Format : UTF-8
Codec ID : S_TEXT/UTF8
Codec ID/Info : UTF-8 Plain Text
Duration : 52 min 37 s
Bit rate : 35 b/s
Count of elements : 483
Stream size : 13.7 KiB (0%)
Language : Spanish
Default : No
Forced : No

Related Torrents

You may like

  • The Haunting of Hill House () Cover
  • Lost in Space (2018) Cover
  • Dark Angel (2000) Cover
  • Altered Carbon Cover