See (2019) S01E07 The Lavender Road (1080p ATVP Webrip x265 10bit EAC3 5.1 Atmos – Goki)

Download Free Verified Torrents!

Seeders: 53
Leechers: 61
Age:

Torrent Hash:

11BAA33589D5B8A73D40497C4F754E196350F0F1

Leave a Reply

Your email address will not be published. Required fields are marked *

Torrent files list (total 1.99 GB in 1 files):

See (2019) S01E07 The Lavender Road (1080p ATVP Webrip x265 10bit EAC3 5.1 Atmos - Goki).mkv
  • See (2019) S01E07 The Lavender Road (1080p ATVP Webrip x265 10bit EAC3 5.1 Atmos - Goki).mkv(1.99 GB)

Details


See (2019) IMDB

Media Information

Complete name : See (2019) S01E07 The Lavender Road (1080p ATVP Webrip x265 10bit EAC3 5.1 Atmos – Goki).mkv
Format : Matroska
Format version : Version 4
File size : 1.99 GiB
Duration : 49 min 2 s
Overall bit rate : 5 806 kb/s
Movie name : See (2019) S01E07 The Lavender Road (1080p ATVP Webrip x265 10bit EAC3 5.1 Atmos – Goki).mkv
Encoded date : UTC 2019-11-28 12:15:02
Writing application : mkvmerge v28.2.0 (‘The Awakening’) 64-bit
Writing library : libebml v1.3.6 + libmatroska v1.4.9

Video
ID : 1
Format : HEVC
Format/Info : High Efficiency Video Coding
Format profile : Main [email protected]@Main
Codec ID : V_MPEGH/ISO/HEVC
Duration : 49 min 2 s
Bit rate : 5 035 kb/s
Width : 1 920 pixels
Height : 910 pixels
Display aspect ratio : 2.110
Frame rate mode : Constant
Frame rate : 23.976 (24000/1001) FPS
Color space : YUV
Chroma subsampling : 4:2:0
Bit depth : 10 bits
Bits/(Pixel*Frame) : 0.120
Stream size : 1.72 GiB (87%)
Writing library : x265 2.9+8-27d8424c799d:[Windows][MSVC 1915][64 bit] 10bit
Language : English
Default : Yes
Forced : No

Audio
ID : 2
Format : E-AC-3 JOC
Format/Info : Enhanced AC-3 with Joint Object Coding
Commercial name : Dolby Digital Plus with Dolby Atmos
Codec ID : A_EAC3
Duration : 49 min 2 s
Bit rate mode : Constant
Bit rate : 768 kb/s
Channel(s) : 6 channels
Channel layout : L R C LFE Ls Rs
Sampling rate : 48.0 kHz
Frame rate : 31.250 FPS (1536 SPF)
Compression mode : Lossy
Stream size : 269 MiB (13%)
Language : English
Service kind : Complete Main
Default : Yes
Forced : No
Complexity index : 16
Number of dynamic objects : 15
Bed channel count : 1 channel
Bed channel configuration : LFE

Text #1
ID : 3
Format : UTF-8
Codec ID : S_TEXT/UTF8
Codec ID/Info : UTF-8 Plain Text
Duration : 21 s 271 ms
Bit rate : 37 b/s
Count of elements : 4
Stream size : 99.0 Bytes (0%)
Title : Forced
Language : English
Default : Yes
Forced : No

Text #2
ID : 4
Format : UTF-8
Codec ID : S_TEXT/UTF8
Codec ID/Info : UTF-8 Plain Text
Duration : 46 min 54 s
Bit rate : 45 b/s
Count of elements : 483
Stream size : 15.7 KiB (0%)
Language : English
Default : No
Forced : No

Related Torrents

You may like

  • Bard of Blood (2019) Cover
  • The Haunting of Hill House () Cover
  • Carnival Row (2019) Cover
  • Altered Carbon Cover